Уиллоу (1 сезон: 1-8 серии из 8) / Willow [2022, Фэнтези, боевик, драма, мелодрама, приключения, WEB-DL (1080p), Профессиональный (многоголосый закадровый) - HDRezka Studio] - Скачать торрент бесплатно

Модераторы: Кандидат в Союз Риперов, Модераторы Сериалы, мультсериалы, Союз Риперов

Поделиться ВКонтакте Поделиться Facebook Поделиться Twitter Поделиться Mail.RU
АвторСообщение
VLAD71
Аватара пользователя
Модератор Фильмов
Модератор Фильмов
 
Раздал: 154.07 ТБ
Скачал: 40.94 ТБ
Ратио: 630.967
Сообщения: 379
Стаж: 6 лет 6 месяцев 28 дней
Награды: 13
Карма: 65

Сообщение VLAD71 » 01 дек 2022, 08:25

Уиллоу (1 сезон: 1-8 серии из 8) / Willow [2022, Фэнтези, боевик, драма, мелодрама, приключения, WEB-DL (1080p), Профессиональный (многоголосый закадровый) - HDRezka Studio] - Скачать торрент

Название: Уиллоу
Оригинальное название: Willow
Год выхода: 2022
Жанр: Фэнтези, боевик, драма, мелодрама, приключения
Режиссер: Филиппа Лоуторп, Дебс Гарднер-Патерсон, Стивен Вульфенден, Джейми Чайлдс

В ролях: Уорвик Дэвис, Руби Крус, Эрин Келлиман, Элли Бамбер, Джоанн Уолли, Розабелла Лауренти Селлерс, Тони Револори, Амер Чадха-Патель, Демпси Брайк, Талиса Гарсиа, Грэм Хьюз, Сара Беннетт, Ралф Айнесон, Кристиан Слэйтер, Алексис Родни, Чарли Роус, Адвоа Абоах и др.

Описание сериала: Уиллоу Юфгуд — скромный фермер и начинающий волшебник, живущий в деревушке среди своего сказочного народа нелвинов. Однажды он находит новорожденную девочку и забирает ее к себе. Согласно древнему пророчеству, девочке суждено разрушить власть могущественной колдуньи-правительницы, захватившей эти земли. Уиллоу задействует все свои навыки, чтобы защитить малышку от злой волшебницы и ее приспешников.

Страна: США
Студия: Imagine Entertainment, Lucasfilm Television, MGM Television
Продолжительность: ~00:55:00
Перевод: Профессиональный (многоголосый, закадровый) HDRezka Studio
Субтитры: Русские (Forced), английские (Full, SDH)



Файл
Формат: MKV
Качество: WEB-DL (1080p)

Видео: 1920x1080 (16:9), 24 fps, AVC (х264), High@L4, ~6249 kbps avg, 0.126 bit/pixel
Аудио RUS: 48 kHz, AC3, 3/2 (L, C, R, l, r) + LFE ch, ~448 kbps avg
Аудио ENG: 48 kHz, E-AC-3 JOC+Atmos, 3/2 (L, C, R, l, r) + LFE ch, ~768 kbps avg




Общее
Уникальный идентификатор : 313468398238544077335829959942216597895 (0xEBD3D146483F4FB190417264DF9BC187)
Полное имя : Willow.2022.S01E01.WEB-DL.1080p.DSNP.HDREZKA.STUDIO.mkv
Формат : Matroska
Версия формата : Version 4
Размер файла : 2,70 Гбайт
Продолжительность : 51 м. 51 с.
Режим общего битрейта : Переменный
Общий поток : 7 468 Кбит/сек
Дата кодирования : UTC 2022-12-01 01:35:15
Программа кодирования : mkvmerge v68.0.0 ('The Curtain') 64-bit
Библиотека кодирования : libebml v1.4.2 + libmatroska v1.6.4

Видео
Идентификатор : 1
Формат : AVC
Формат/Информация : Advanced Video Codec
Профиль формата : High@L4
Настройки формата : CABAC / 4 Ref Frames
Параметр CABAC формата : Да
Параметр RefFrames формата : 4 кадра
Идентификатор кодека : V_MPEG4/ISO/AVC
Продолжительность : 51 м. 51 с.
Вид битрейта : Переменный
Битрейт : 6 249 Кбит/сек
Максимальный битрейт : 12,7 Мбит/сек
Ширина : 1 920 пикселей
Высота : 1 080 пикселей
Соотношение сторон : 16:9
Режим частоты кадров : Постоянный
Частота кадров : 24,000 кадра/сек
Цветовое пространство : YUV
Субдискретизация насыщенности : 4:2:0
Битовая глубина : 8 бит
Тип развёртки : Прогрессивная
Бит/(Пиксели*Кадры) : 0.126
Размер потока : 2,26 Гбайт (84%)
Язык : English
Default : Да
Forced : Нет
Цветовой диапазон : Limited
Основные цвета : BT.709
Характеристики трансфера : BT.709
Коэффициенты матрицы : BT.709

Аудио #1
Идентификатор : 2
Формат : AC-3
Формат/Информация : Audio Coding 3
Коммерческое название : Dolby Digital
Идентификатор кодека : A_AC3
Продолжительность : 51 м. 51 с.
Вид битрейта : Постоянный
Битрейт : 448 Кбит/сек
Каналы : 6 каналов
Channel layout : L R C LFE Ls Rs
Частота : 48,0 КГц
Частота кадров : 31,250 кадров/сек (1536 SPF)
Метод сжатия : С потерями
Размер потока : 166 Мбайт (6%)
Язык : Russian
Default : Да
Forced : Нет

Аудио #2
Идентификатор : 3
Формат : E-AC-3 JOC
Формат/Информация : Enhanced AC-3 with Joint Object Coding
Коммерческое название : Dolby Digital Plus with Dolby Atmos
Идентификатор кодека : A_EAC3
Продолжительность : 51 м. 51 с.
Вид битрейта : Постоянный
Битрейт : 768 Кбит/сек
Каналы : 6 каналов
Channel layout : L R C LFE Ls Rs
Частота : 48,0 КГц
Частота кадров : 31,250 кадров/сек (1536 SPF)
Метод сжатия : С потерями
Размер потока : 285 Мбайт (10%)
Язык : English
Default : Нет
Forced : Нет
Complexity index : 16
Number of dynamic objects : 15
Bed channel count : 1 канал
Bed channel configuration : LFE

Текст #1
Идентификатор : 4
Формат : UTF-8
Идентификатор кодека : S_TEXT/UTF8
Идентификатор кодека/Информация : UTF-8 Plain Text
Продолжительность : 48 м. 50 с.
Битрейт : 1 бит/сек
Частота кадров : 0,003 кадр/сек
Count of elements : 8
Размер потока : 420 байт (0%)
Заголовок : Forced
Язык : Russian
Default : Нет
Forced : Нет

Текст #2
Идентификатор : 5
Формат : UTF-8
Идентификатор кодека : S_TEXT/UTF8
Идентификатор кодека/Информация : UTF-8 Plain Text
Продолжительность : 48 м. 32 с.
Битрейт : 65 бит/сек
Частота кадров : 0,238 кадр/сек
Count of elements : 694
Размер потока : 23,3 Кбайт (0%)
Язык : English
Default : Нет
Forced : Нет

Текст #3
Идентификатор : 6
Формат : UTF-8
Идентификатор кодека : S_TEXT/UTF8
Идентификатор кодека/Информация : UTF-8 Plain Text
Продолжительность : 48 м. 56 с.
Битрейт : 76 бит/сек
Частота кадров : 0,294 кадр/сек
Count of elements : 862
Размер потока : 27,4 Кбайт (0%)
Заголовок : SDH
Язык : English
Default : Нет
Forced : Нет

Меню
00:05:31.958 : en:Scene 1
00:18:49.583 : en:Scene 2
00:33:35.417 : en:Scene 3
00:44:32.500 : en:Scene 4
00:49:06.833 : en:Credits

Как качать, Как раздавать - Правила и инструкции
Торрент12 янв 2023, 12:15 [ 12 янв 2023, 12:15 ]

СКАЧАТЬ с просмотром рекламы
Статус-
.torrent скачан20 раз
Размер20.96 ГБ (22 506 972 455)

WildCatII

Аватара пользователя
Опытный пользователь
Опытный пользователь
 

Сообщения: 155

Стаж: 11 лет 29 дней

Откуда: СССР

Награды: 4
Карма: 20

Сообщение WildCatII» 12 янв 2023, 21:58

Интересный сериальчик! *круто а поменьше размерчиком будет? *бухать


Вернуться в !!! Полные завершенные сезоны !!!

Кто сейчас на конференции

Сейчас этот форум просматривают: av-grat

Ресурс не предоставляет электронные версии произведений, а занимается лишь коллекционированием и каталогизацией ссылок, присылаемых и публикуемых на форуме нашими читателями. Если вы являетесь правообладателем какого-либо представленного материала и не желаете чтобы ссылка на него находилась в нашем каталоге, свяжитесь с нами и мы незамедлительно удалим её. Файлы для обмена на трекере предоставлены пользователями сайта, и администрация не несёт ответственности за их содержание. Просьба не заливать файлы, защищенные авторскими правами, а также файлы нелегального содержания!