Викинги: Вальхалла / Vikings: Valhalla (2 сезон: 1-8 серии из 8) [2023, История, боевик, мелодрама, WEB-DL (1080p) | HDrezka Studio] - Скачать торрент бесплатно

Модераторы: Кандидат в Союз Риперов, Модераторы Сериалы, мультсериалы, Союз Риперов

Поделиться ВКонтакте Поделиться Facebook Поделиться Twitter Поделиться Mail.RU
АвторСообщение
VLAD71
Аватара пользователя
Модератор Фильмов
Модератор Фильмов
 
Раздал: 151.85 ТБ
Скачал: 40.94 ТБ
Ратио: 628.619
Сообщения: 368
Стаж: 6 лет 5 месяцев 13 дней
Награды: 13
Карма: 50

Сообщение VLAD71 » 13 янв 2023, 14:30

Викинги: Вальхалла / Vikings: Valhalla (2 сезон: 1-8 серии из 8) [2023, История, боевик, мелодрама, WEB-DL (1080p) | HDrezka Studio] - Скачать торрент

Название: Викинги: Вальхалла
Оригинальное название: Vikings: Valhalla
Год выхода: 2023
Жанр: История, боевик, мелодрама
Режиссер: Стивен Ст. Леджер, Ханна Куинн, Нильс Арден Оплев

В ролях: Сэм Корлетт, Фрида Густавссон, Лео Сутер, Брэдли Фригард, Йоуханнес Хёйкюр Йоуханнессон, Кэролайн Хендерсон, Поллианна МакИнтош, Дэвид Оукс, Лаура Берлин, Джулиан Сигер и др.

Описание сериала: Рассказ о попытке викингов завоевать Англию, путешествии Лейфа Эрикссона в Америку, а также о драматической истории любви, вражды и мести на фоне распространения христианства среди викингов.

Страна: США
Студия: MGM Television, MGM/UA Television
Продолжительность: ~00:55:00
Перевод: Профессиональный (многоголосый, закадровый) HDRezka Studio
Субтитры: Русские (Forced, Full), английские (Full, SDH)



Файл
Формат: MKV
Качество: WEB-DL (1080p)

Видео: 1920x1080 (16:9), 23,976 fps, AVC (х264), High@L4, ~5000 kbps avg, 0.101 bit/pixel
Аудио RUS: 48 kHz, AC3, 3/2 (L, C, R, l, r) + LFE ch, ~448 kbps avg
Аудио ENG: 48 kHz, E-AC-3 JOC+Atmos, 3/2 (L, C, R, l, r) + LFE ch, ~768 kbps avg




Общее
Уникальный идентификатор : 174716185297836523330910827363677963026 (0x83711D0173F8B40F904019481B830312)
Полное имя : Vikings.Valhalla.2023.S02E01.WEB-DL.1080p.NF.HDREZKA.STUDIO.mkv
Формат : Matroska
Версия формата : Version 4
Размер файла : 2,31 Гбайт
Продолжительность : 54 м. 7 с.
Режим общего битрейта : Переменный
Общий поток : 6 099 Кбит/сек
Дата кодирования : UTC 2023-01-13 08:29:15
Программа кодирования : mkvmerge v68.0.0 ('The Curtain') 64-bit
Библиотека кодирования : libebml v1.4.2 + libmatroska v1.6.4
Attachments : poster.jpg

Видео
Идентификатор : 1
Формат : AVC
Формат/Информация : Advanced Video Codec
Профиль формата : Main@L4
Настройки формата : CABAC / 3 Ref Frames
Параметр CABAC формата : Да
Параметр RefFrames формата : 3 кадра
Идентификатор кодека : V_MPEG4/ISO/AVC
Продолжительность : 54 м. 7 с.
Вид битрейта : Переменный
Битрейт : 5 000 Кбит/сек
Максимальный битрейт : 7 500 Кбит/сек
Ширина : 1 920 пикселей
Высота : 1 080 пикселей
Соотношение сторон : 16:9
Режим частоты кадров : Постоянный
Частота кадров : 23,976 (24000/1001) кадра/сек
Цветовое пространство : YUV
Субдискретизация насыщенности : 4:2:0
Битовая глубина : 8 бит
Тип развёртки : Прогрессивная
Бит/(Пиксели*Кадры) : 0.101
Размер потока : 1,85 Гбайт (80%)
Библиотека кодирования : x264 core 148 r2727 7d026e8
Настройки программы : cabac=1 / ref=3 / deblock=1:0:0 / analyse=0x1:0x111 / me=umh / subme=10 / psy=1 / psy_rd=1.00:0.00 / mixed_ref=1 / me_range=24 / chroma_me=1 / trellis=2 / 8x8dct=0 / cqm=0 / deadzone=21,11 / fast_pskip=1 / chroma_qp_offset=-2 / threads=8 / lookahead_threads=1 / sliced_threads=0 / nr=0 / decimate=1 / interlaced=0 / bluray_compat=0 / stitchable=1 / constrained_intra=0 / bframes=2 / b_pyramid=0 / b_adapt=2 / b_bias=0 / direct=3 / weightb=1 / open_gop=0 / weightp=2 / keyint=48 / keyint_min=25 / scenecut=0 / intra_refresh=0 / rc_lookahead=48 / rc=2pass / mbtree=1 / bitrate=5000 / ratetol=1.0 / qcomp=0.50 / qpmin=6 / qpmax=51 / qpstep=4 / cplxblur=20.0 / qblur=0.5 / vbv_maxrate=7500 / vbv_bufsize=10000 / nal_hrd=vbr / filler=0 / ip_ratio=1.40 / aq=1:1.00
Язык : English
Default : Да
Forced : Нет

Аудио #1
Идентификатор : 2
Формат : AC-3
Формат/Информация : Audio Coding 3
Коммерческое название : Dolby Digital
Идентификатор кодека : A_AC3
Продолжительность : 54 м. 7 с.
Вид битрейта : Постоянный
Битрейт : 448 Кбит/сек
Каналы : 6 каналов
Channel layout : L R C LFE Ls Rs
Частота : 48,0 КГц
Частота кадров : 31,250 кадров/сек (1536 SPF)
Метод сжатия : С потерями
Размер потока : 173 Мбайт (7%)
Язык : Russian
Default : Да
Forced : Нет

Аудио #2
Идентификатор : 3
Формат : E-AC-3 JOC
Формат/Информация : Enhanced AC-3 with Joint Object Coding
Коммерческое название : Dolby Digital Plus with Dolby Atmos
Идентификатор кодека : A_EAC3
Продолжительность : 54 м. 7 с.
Вид битрейта : Постоянный
Битрейт : 768 Кбит/сек
Каналы : 6 каналов
Channel layout : L R C LFE Ls Rs
Частота : 48,0 КГц
Частота кадров : 31,250 кадров/сек (1536 SPF)
Метод сжатия : С потерями
Размер потока : 297 Мбайт (13%)
Язык : English
Default : Нет
Forced : Нет
Complexity index : 16
Number of dynamic objects : 15
Bed channel count : 1 канал
Bed channel configuration : LFE

Текст #1
Идентификатор : 4
Формат : UTF-8
Идентификатор кодека : S_TEXT/UTF8
Идентификатор кодека/Информация : UTF-8 Plain Text
Продолжительность : 26 м. 24 с.
Битрейт : 1 бит/сек
Частота кадров : 0,004 кадр/сек
Count of elements : 7
Размер потока : 360 байт (0%)
Заголовок : Forced
Язык : Russian
Default : Нет
Forced : Нет

Текст #2
Идентификатор : 5
Формат : UTF-8
Идентификатор кодека : S_TEXT/UTF8
Идентификатор кодека/Информация : UTF-8 Plain Text
Продолжительность : 52 м. 31 с.
Битрейт : 60 бит/сек
Частота кадров : 0,160 кадр/сек
Count of elements : 503
Размер потока : 23,4 Кбайт (0%)
Язык : Russian
Default : Нет
Forced : Нет

Текст #3
Идентификатор : 6
Формат : UTF-8
Идентификатор кодека : S_TEXT/UTF8
Идентификатор кодека/Информация : UTF-8 Plain Text
Продолжительность : 50 м. 50 с.
Битрейт : 38 бит/сек
Частота кадров : 0,167 кадр/сек
Count of elements : 508
Размер потока : 14,5 Кбайт (0%)
Язык : English
Default : Нет
Forced : Нет

Текст #4
Идентификатор : 7
Формат : UTF-8
Идентификатор кодека : S_TEXT/UTF8
Идентификатор кодека/Информация : UTF-8 Plain Text
Продолжительность : 50 м. 51 с.
Битрейт : 43 бит/сек
Частота кадров : 0,200 кадр/сек
Count of elements : 610
Размер потока : 16,3 Кбайт (0%)
Заголовок : SDH
Язык : English
Default : Нет
Forced : Нет

Меню
00:51:02.000 : en:End Credits

Как качать, Как раздавать - Правила и инструкции
Торрент15 янв 2023, 09:01 [ 15 янв 2023, 09:01 ]

СКАЧАТЬ с просмотром рекламы
Статус-
.torrent скачан11 раз
Размер16.93 ГБ (18 181 356 839)

Вернуться в !!! Полные завершенные сезоны !!!

Кто сейчас на конференции

Сейчас этот форум просматривают: Bing [Bot]

Ресурс не предоставляет электронные версии произведений, а занимается лишь коллекционированием и каталогизацией ссылок, присылаемых и публикуемых на форуме нашими читателями. Если вы являетесь правообладателем какого-либо представленного материала и не желаете чтобы ссылка на него находилась в нашем каталоге, свяжитесь с нами и мы незамедлительно удалим её. Файлы для обмена на трекере предоставлены пользователями сайта, и администрация не несёт ответственности за их содержание. Просьба не заливать файлы, защищенные авторскими правами, а также файлы нелегального содержания!