Казаки / Серия 1-16 из 16 / [2016, Детектив, приключения, HDTVRip] - Скачать торрент бесплатно

Казаки

Модераторы: Кандидат в Союз Риперов, Модераторы Сериалы, мультсериалы, Союз Риперов

Казаки
Поделиться ВКонтакте Поделиться Facebook Поделиться Twitter Поделиться Mail.RU
АвторСообщение
Vadim
Аватара пользователя
Супермодератор
Супермодератор
 
Раздал: 127.1 ТБ
Скачал: 65.37 ТБ
Ратио: 999.424
Сообщения: 5099
Стаж: 13 лет 4 месяца 8 дней
Откуда: Заб.край, г.Чита
Награды: 42
Карма: 4694
-2--2--2--2--2--2--2--2--2--2-

Сообщение Vadim » 11 дек 2016, 18:53

Казаки / Серия 1-16 из 16 / [2016, Детектив, приключения, HDTVRip] - Скачать торрент

Информация о фильме
Оригинальное название: Казаки
Год выпуска: 2016
Жанр: Детектив, приключения
Режиссер: Станислав Мареев
В ролях: Антон Пампушный, Владимир Гостюхин, Евгений Сидихин, Полина Сидихина, Андрей Ильин, Олег Морозов, Алексей Гришин, Владислав Дёмин, Карина Реука, Ирина Основина, Олег Метелев, Игорь Скрипко, Виктория Полторак, Лилия Кондрова, Елена Аросьева, Екатерина Долгова, Олег Радченко

О фильме:
Майор полиции Егор Даурский в частном порядке расследует убийство своего друга полковника полиции и его жены, в станице Краснодарского края. Здесь он сталкивается с беспределом местной преступной группировки под предводительством некоего Сурового. Также он знакомится с местными казаками и их атаманом Петром Лазаревым, которые противостоят откровенному беспределу властей и криминала. Даурскому удаётся раскрыть убийство друга и наказать виновных. Завершив дело, он возвращается в Москву для того, чтобы перевестись в станицу. Вместе с казаками он надеется избавить местечко от Сурового и его группировки.



Страна: Россия
Студия: Кинокомпания «Star Media»
Продолжительность: 16 x ~ 00:45:00
Перевод: Не требуется

Файл
Формат: avi
Качество: HDTVRip
Видео: XviD build 73, 592x336 (16:9), 25.000 fps, ~ 750 Kbps (~ 0.150 bit/pixel)
Звук: 48.0 kHz, MP3, 2/0 ch, 128 kbps
Субтитры: нет

General
Complete name : Kazaki.2016.XviD.HDTVRip.GeneralFilm\Kazaki.02.avi
Format : AVI
Format/Info : Audio Video Interleave
File size : 279 MiB
Duration : 44mn 10s
Overall bit rate : 884 Kbps
Writing application : VirtualDubMod 1.5.10.3 | http://www.virtualdub-fr.org || (build 2550/release)
Writing library : VirtualDubMod build 2550/release

Video
ID : 0
Format : MPEG-4 Visual
Format profile : Advanced Simple@L5
Format settings, BVOP : 1
Format settings, QPel : Yes
Format settings, GMC : No warppoints
Format settings, Matrix : Custom
Codec ID : XVID
Codec ID/Hint : XviD
Duration : 44mn 10s
Bit rate : 746 Kbps
Width : 592 pixels
Height : 336 pixels
Display aspect ratio : 16:9
Frame rate : 25.000 fps
Color space : YUV
Chroma subsampling : 4:2:0
Bit depth : 8 bits
Scan type : Progressive
Compression mode : Lossy
Bits/(Pixel*Frame) : 0.150
Stream size : 236 MiB (84%)
Writing library : XviD 73

Audio
ID : 1
Format : MPEG Audio
Format version : Version 1
Format profile : Layer 3
Codec ID : 55
Codec ID/Hint : MP3
Duration : 44mn 10s
Bit rate mode : Constant
Bit rate : 128 Kbps
Channel(s) : 2 channels
Sampling rate : 48.0 KHz
Compression mode : Lossy
Stream size : 40.4 MiB (14%)
Alignment : Aligned on interleaves
Interleave, duration : 40 ms (1.00 video frame)
Interleave, preload duratio : 504 ms
Writing library : LAME3.99r
Encoding settings : -m s -V 4 -q 0 -lowpass 17 -b 128






Как качать, Как раздавать - Правила и инструкции
Торрент11 дек 2016, 18:53 [ 11 дек 2016, 18:53 ]

СКАЧАТЬ с просмотром рекламы
СтатусПроверен Vadim
.torrent скачан7158 раз
Размер4.36 ГБ (4 680 161 280)


dukat

Аватара пользователя
Специалист
Специалист
 

Сообщения: 219

Стаж: 9 лет 6 месяцев 27 дней

Откуда: А оно тебе это надо знать?

Награды: 4
Карма: 46

Сообщение dukat» 12 дек 2016, 03:41

Песня в конце очень понравилаь,пробывал в инете найти,не смог..((((


Вернуться в Казаки

Кто сейчас на конференции

Сейчас этот форум просматривают: нет зарегистрированных пользователей

Ресурс не предоставляет электронные версии произведений, а занимается лишь коллекционированием и каталогизацией ссылок, присылаемых и публикуемых на форуме нашими читателями. Если вы являетесь правообладателем какого-либо представленного материала и не желаете чтобы ссылка на него находилась в нашем каталоге, свяжитесь с нами и мы незамедлительно удалим её. Файлы для обмена на трекере предоставлены пользователями сайта, и администрация не несёт ответственности за их содержание. Просьба не заливать файлы, защищенные авторскими правами, а также файлы нелегального содержания!