(Classical, Symphonies) Gianandrea Noseda - Beethoven: Symphonies Nos 6 & 8 [24-bit Hi-Res] - 2023, FLAC, Lossless - Скачать торрент бесплатно

Модераторы: Модераторы Музыки, Союз Риперов

Поделиться ВКонтакте Поделиться Facebook Поделиться Twitter Поделиться Mail.RU
АвторСообщение
Renesans
Аватара пользователя
Модератор SOFT
Модератор SOFT
 
Раздал: 425.48 ГБ
Скачал: 348.07 ГБ
Ратио: 7.167
Сообщения: 3719
Стаж: 12 лет 1 месяц 17 дней
Награды: 16
Карма: 7005
-2--2--2--2--2--2--2--2--2--2-

Сообщение Renesans » 23 окт 2023, 20:27

(Classical, Symphonies) Gianandrea Noseda - Beethoven: Symphonies Nos 6 & 8 [24-bit Hi-Res] - 2023, FLAC, Lossless - Скачать торрент

Название: Beethoven: Symphonies Nos 6 & 8
Исполнитель: Gianandrea Noseda
Год: 2023
Жанр: Classical, Symphonies
Издатель (лейбл): National Symphony Orchestra

Продолжительность: 01:06:27
Формат/Кодек: FLAC
Тип рипа: Tracks + booklet
Битрейт аудио: Lossless
Разрядность: 24 Bit/192 kHz



01. Symphony No. 6 in F major, Op. 68, "Pastoral": I. Erwachen heiterer Empfindungen bei der Ankunft auf dem Lande. Allegro ma non troppo
02. Symphony No. 6 in F major, Op. 68, "Pastoral": II. Szene am Bach. Andante molto moto
03. Symphony No. 6 in F major, Op. 68, "Pastoral": III. Lustiges Zusammensein der Landleute. Allegro
04. Symphony No. 6 in F major, Op. 68, "Pastoral": IV. Gewitter. Sturm. Allegro
05. Symphony No. 6 in F major, Op. 68, "Pastoral": V. Hirtengesang. Frohe und dankbare Gefühle nach dem Sturm. Allegretto
06. Symphony No. 8 in F major, Op. 93: I. Allegro vivace e con brio
07. Symphony No. 8 in F major, Op. 93: II. Allegretto scherzando
08. Symphony No. 8 in F major, Op. 93: III. Tempo di Menuetto
09. Symphony No. 8 in F major, Op. 93: IV. Allegro vivace

foobar2000 1.5.5 / Замер динамического диапазона (DR) 1.1.1
------------------------------------------------------------------------------
Анализ: Gianandrea Noseda / Beethoven: Symphonies Nos 6 & 8
--------------------------------------------------------------------------------

DR Пики RMS Продолжительность трека
--------------------------------------------------------------------------------
DR12 -0.74 дБ -19.03 дБ 11:16 01-Symphony No. 6 in F major, Op. 68, "Pastoral": I. Erwachen heiterer Empfindungen bei der Ankunft auf dem Lande. Allegro ma non troppo
DR13 -3.91 дБ -23.33 дБ 11:38 02-Symphony No. 6 in F major, Op. 68, "Pastoral": II. Szene am Bach. Andante molto moto
DR12 -0.14 дБ -16.85 дБ 4:38 03-Symphony No. 6 in F major, Op. 68, "Pastoral": III. Lustiges Zusammensein der Landleute. Allegro
DR10 -0.13 дБ -14.92 дБ 3:30 04-Symphony No. 6 in F major, Op. 68, "Pastoral": IV. Gewitter. Sturm. Allegro
DR12 -0.48 дБ -17.39 дБ 9:44 05-Symphony No. 6 in F major, Op. 68, "Pastoral": V. Hirtengesang. Frohe und dankbare Gefühle nach dem Sturm. Allegretto
DR12 -0.13 дБ -15.89 дБ 9:11 06-Symphony No. 8 in F major, Op. 93: I. Allegro vivace e con brio
DR13 -2.92 дБ -23.30 дБ 4:08 07-Symphony No. 8 in F major, Op. 93: II. Allegretto scherzando
DR13 -0.29 дБ -18.27 дБ 4:49 08-Symphony No. 8 in F major, Op. 93: III. Tempo di Menuetto
DR12 -0.13 дБ -16.23 дБ 7:33 09-Symphony No. 8 in F major, Op. 93: IV. Allegro vivace
--------------------------------------------------------------------------------

Количество треков: 9
Реальные значения DR: DR12

Частота: 192000 Гц
Каналов: 2
Разрядность: 24
Битрейт: 4724 кбит/с
Кодек: FLAC
============================================================================
Как качать, Как раздавать - Правила и инструкции
Торрент23 окт 2023, 20:27 [ 23 окт 2023, 20:27 ]

СКАЧАТЬ с просмотром рекламы
СтатусПроверен Renesans
.torrent скачан114 раз
Размер2.17 ГБ (2 324 959 352)

aleksber2020

Аватара пользователя
Гуру
Гуру
 

Сообщения: 4895

Стаж: 2 года 7 месяцев

Откуда: СССР

Награды: 19
Карма: 0

Сообщение aleksber2020» 24 окт 2023, 01:32

Неплохо бы любой музыкальный релиз сопровождать как минимум хоть какими-то скринами альбома и хоть какой-то информацией о самом произведении и об исполнителях. Неплохо бы указать что Джанандреа Нозеда - это дирижер симфонического оркестра, а исполнитель - это всё-таки сам симфонический оркестр, в данном случае национальный симфонический оркестр Кеннеди центра.
Ну и так далее. Просто так принято и обычно так и делается.


Вернуться в Classical - lossless

Кто сейчас на конференции

Сейчас этот форум просматривают: нет зарегистрированных пользователей

Ресурс не предоставляет электронные версии произведений, а занимается лишь коллекционированием и каталогизацией ссылок, присылаемых и публикуемых на форуме нашими читателями. Если вы являетесь правообладателем какого-либо представленного материала и не желаете чтобы ссылка на него находилась в нашем каталоге, свяжитесь с нами и мы незамедлительно удалим её. Файлы для обмена на трекере предоставлены пользователями сайта, и администрация не несёт ответственности за их содержание. Просьба не заливать файлы, защищенные авторскими правами, а также файлы нелегального содержания!