Покемон / Pokemon: Indigo League (Cезон 1 , Серия 276 из 276) [1997, Комедия, DVDRip] - Скачать торрент бесплатно

Аниме Сериалы и все что с ним связано, вы можете скачать торрент -файлом в этом разделе.

Модераторы: Модераторы Сериалы, мультсериалы, Союз Риперов

Поделиться ВКонтакте Поделиться Facebook Поделиться Twitter Поделиться Mail.RU
АвторСообщение
Djanik

Пользователь
Пользователь
 
Раздал: 1.72 ТБ
Скачал: 336.68 ГБ
Ратио: 9.590
Сообщения: 93
Стаж: 12 лет 7 месяцев 17 дней
Карма: 4

Сообщение Djanik » 30 апр 2012, 21:08

Покемон / Pokemon: Indigo League (Cезон 1 , Серия 276 из 276) [1997, Комедия, DVDRip] - Скачать торрент

Название: Покемон
Оригинальное название: Pokemon: Indigo League

Дата выхода: 1997
Страна: Япония
Студия:
Жанр: Комедия
Тип аниме: TV
Сезон: 1
Серии: 276 из 276
Продолжительность: 21:00
Перевод: Полное дублирование
Роли озвучивали: Киев, студия Пилот
Тип релиза: Без Хардсаба
Режиссёр: Хидака Масамицу
Описание: Мир покемонов такой же как наш, но вместо зверей там живут покемоны. Люди нещадно эксплуатируют их. Кроме того, покемоны выполняют в этом мире роль гладиаторов в Древнем Риме, то есть развлекают своими боями публику. Мирно гуляющего по лесу зверька выслеживают браконьеры (Гордо именующие себя Тренерами Покемонов) и натравливают на них своего уже порабощённого покемона, чтобы раб отфигачил его до полусмерти, не оставив бедному животному сил выбраться с портативной темницы, именуемой покебол. После этого новоиспечённой невольник вынужден жить в адских условиях. Отныне, как и все усыновлённые дети, он будет только убивать. Каждый день это череда бессмысленных битв на забаву эксплуататору-человеку. Жизнь в тёмной шаре, откуда он выходит только чтобы опять вкусить крови, и кормёжка, нужная только затем, чтобы покемон совсем не сдох от голода. В противном случае остаётся только жрать трупы убитых врагов или свои конечности.
Дополнительно: Фильмы по аниме Pokemon: post142745.html#p142745
2 сезон этого аниме: post143158.html#p143158

ДОБАВИЛ ВСЕ СЕРИИ 1 СЕЗОНА, ПЕРЕКАЧАЙТЕ ТОРЕНТ ФАЙЛ
Качество: DVDRip
Формат файла: AVI
Видео кодек: XviD
Аудио кодек: MPEG Audio Layer 3
Видео: Xvid 640x480 23.98fps 890kbps
Аудио: MPEG Audio Layer 3 44100Hz stereo 128kbps
MediaInfo:
General
Complete name : Покемоны.1.сезон.1-82.серии\Pokemon.054.avi
Format : AVI
Format/Info : Audio Video Interleave
File size : 143 MiB
Duration : 19mn 23s
Overall bit rate : 1 028 Kbps
Writing application : VirtualDubMod 1.5.4.1 (build 2066/release)
Writing library : VirtualDubMod build 2066/release

Video
ID : 0
Format : MPEG-4 Visual
Format profile : Advanced Simple@L5
Format settings, BVOP : Yes
Format settings, QPel : Yes
Format settings, GMC : 3 warppoints
Format settings, Matrix : Default (H.263)
Muxing mode : Packed bitstream
Codec ID : XVID
Codec ID/Hint : XviD
Duration : 19mn 23s
Bit rate : 890 Kbps
Width : 640 pixels
Height : 480 pixels
Display aspect ratio : 4:3
Frame rate : 23.976 fps
Resolution : 8 bits
Colorimetry : 4:2:0
Scan type : Progressive
Bits/(Pixel*Frame) : 0.121
Stream size : 124 MiB (87%)
Writing library : XviD 1.0.1 (UTC 2004-06-05)

Audio
ID : 1
Format : MPEG Audio
Format version : Version 1
Format profile : Layer 3
Format_Settings_Mode : Dual mono
Codec ID : 55
Codec ID/Hint : MP3
Duration : 19mn 23s
Bit rate mode : Constant
Bit rate : 128 Kbps
Channel(s) : 2 channels
Sampling rate : 44.1 KHz
Video delay : 14ms
Stream size : 17.8 MiB (12%)
Alignment : Split accross interleaves
Interleave, duration : 42 ms (1.00 video frame)
Interleave, preload duration : 500 ms


Название: Покемон
Оригинальное название: Pokemon: Indigo League

Дата выхода: 1997
Страна: Япония
Студия:
Жанр: Комедия
Тип аниме: TV
Сезон: 1
Серии: 1-82 из 276
Продолжительность: 21:00
Перевод: Полное дублирование
Роли озвучивали: Киев, студия Пилот
Тип релиза: Без Хардсаба
Режиссёр: Хидака Масамицу
Описание: Мир покемонов такой же как наш, но вместо зверей там живут покемоны. Люди нещадно эксплуатируют их. Кроме того, покемоны выполняют в этом мире роль гладиаторов в Древнем Риме, то есть развлекают своими боями публику. Мирно гуляющего по лесу зверька выслеживают браконьеры (Гордо именующие себя Тренерами Покемонов) и натравливают на них своего уже порабощённого покемона, чтобы раб отфигачил его до полусмерти, не оставив бедному животному сил выбраться с портативной темницы, именуемой покебол. После этого новоиспечённой невольник вынужден жить в адских условиях. Отныне, как и все усыновлённые дети, он будет только убивать. Каждый день это череда бессмысленных битв на забаву эксплуататору-человеку. Жизнь в тёмной шаре, откуда он выходит только чтобы опять вкусить крови, и кормёжка, нужная только затем, чтобы покемон совсем не сдох от голода. В противном случае остаётся только жрать трупы убитых врагов или свои конечности.
Качество: DVDRip

характеристики для серий в MKV (1-22 серии):

Видео: Xvid 640x480 23.98fps
Аудио: MPEG Audio Layer 3 48000Hz stereo [Russian, Pokemon TV 001 Rus [By Timber Maniacs] (Audio 1)]
Аудио: MPEG Audio Layer 3 48000Hz stereo [English, Pokemon TV 001 Eng [By Timber Maniacs] (Audio 2)]

General
Complete name : Покемоны.1.сезон.1-82.серии\Pokemon.001.mkv
Format : Matroska
File size : 311 MiB
Duration : 21mn 41s
Overall bit rate : 2 004 Kbps
Encoded date : UTC 2009-04-19 00:24:36
Writing application : mkvmerge v2.1.0 ('Another Place To Fall') built on Aug 19 2007 13:40:07
Writing library : libebml v0.7.7 + libmatroska v0.8.1

Video
ID : 1
Format : MPEG-4 Visual
Format profile : Advanced Simple@L5
Format settings, BVOP : Yes
Format settings, QPel : No
Format settings, GMC : No warppoints
Format settings, Matrix : Default (H.263)
Codec ID : XVID
Codec ID/Hint : XviD
Duration : 21mn 39s
Bit rate : 1 580 Kbps
Width : 640 pixels
Height : 480 pixels
Display aspect ratio : 4:3
Frame rate : 23.976 fps
Resolution : 8 bits
Colorimetry : 4:2:0
Scan type : Progressive
Bits/(Pixel*Frame) : 0.215
Stream size : 245 MiB (79%)
Title : Pokemon TV 001 [By Timber Maniacs]
Writing library : XviD 1.2.1 (UTC 2008-12-04)
Language : English

Audio #1
ID : 2
Format : MPEG Audio
Format version : Version 1
Format profile : Layer 3
Format_Settings_Mode : Joint stereo
Codec ID : A_MPEG/L3
Codec ID/Hint : MP3
Duration : 21mn 41s
Bit rate mode : Constant
Bit rate : 192 Kbps
Channel(s) : 2 channels
Sampling rate : 48.0 KHz
Stream size : 29.8 MiB (10%)
Title : Pokemon TV 001 Rus [By Timber Maniacs]
Language : Russian

Audio #2
ID : 3
Format : MPEG Audio
Format version : Version 1
Format profile : Layer 3
Format_Settings_Mode : Joint stereo
Codec ID : A_MPEG/L3
Codec ID/Hint : MP3
Duration : 21mn 41s
Bit rate mode : Constant
Bit rate : 192 Kbps
Channel(s) : 2 channels
Sampling rate : 48.0 KHz
Stream size : 29.8 MiB (10%)
Title : Pokemon TV 001 Eng [By Timber Maniacs]
Language : English








Характеристики для серий 23-82:
Формат файла: AVI
Видео кодек: XviD
Аудио кодек: MPEG Audio Layer 3
Видео: Xvid 640x480 23.98fps 890kbps
Аудио: MPEG Audio Layer 3 44100Hz stereo 128kbps
MediaInfo:
General
Complete name : Покемоны.1.сезон.1-82.серии\Pokemon.054.avi
Format : AVI
Format/Info : Audio Video Interleave
File size : 143 MiB
Duration : 19mn 23s
Overall bit rate : 1 028 Kbps
Writing application : VirtualDubMod 1.5.4.1 (build 2066/release)
Writing library : VirtualDubMod build 2066/release

Video
ID : 0
Format : MPEG-4 Visual
Format profile : Advanced Simple@L5
Format settings, BVOP : Yes
Format settings, QPel : Yes
Format settings, GMC : 3 warppoints
Format settings, Matrix : Default (H.263)
Muxing mode : Packed bitstream
Codec ID : XVID
Codec ID/Hint : XviD
Duration : 19mn 23s
Bit rate : 890 Kbps
Width : 640 pixels
Height : 480 pixels
Display aspect ratio : 4:3
Frame rate : 23.976 fps
Resolution : 8 bits
Colorimetry : 4:2:0
Scan type : Progressive
Bits/(Pixel*Frame) : 0.121
Stream size : 124 MiB (87%)
Writing library : XviD 1.0.1 (UTC 2004-06-05)

Audio
ID : 1
Format : MPEG Audio
Format version : Version 1
Format profile : Layer 3
Format_Settings_Mode : Dual mono
Codec ID : 55
Codec ID/Hint : MP3
Duration : 19mn 23s
Bit rate mode : Constant
Bit rate : 128 Kbps
Channel(s) : 2 channels
Sampling rate : 44.1 KHz
Video delay : 14ms
Stream size : 17.8 MiB (12%)
Alignment : Split accross interleaves
Interleave, duration : 42 ms (1.00 video frame)
Interleave, preload duration : 500 ms
Как качать, Как раздавать - Правила и инструкции
Торрент16 май 2012, 10:16 [ 16 май 2012, 10:16 ]

СКАЧАТЬ с просмотром рекламы
Статус-
.torrent скачан16 раз
Размер36.11 ГБ (38 777 773 141)

Djanik


Пользователь
Пользователь
 

Сообщения: 93

Стаж: 12 лет 7 месяцев 17 дней
Карма: 4

Сообщение Djanik» 30 апр 2012, 21:14

характеристики для серий которые в MKV (1-22 серии):

Видео: Xvid 640x480 23.98fps
Аудио: MPEG Audio Layer 3 48000Hz stereo [Russian, Pokemon TV 001 Rus [By Timber Maniacs] (Audio 1)]
Аудио: MPEG Audio Layer 3 48000Hz stereo [English, Pokemon TV 001 Eng [By Timber Maniacs] (Audio 2)]

General
Complete name : Покемоны.1.сезон.1-82.серии\Pokemon.001.mkv
Format : Matroska
File size : 311 MiB
Duration : 21mn 41s
Overall bit rate : 2 004 Kbps
Encoded date : UTC 2009-04-19 00:24:36
Writing application : mkvmerge v2.1.0 ('Another Place To Fall') built on Aug 19 2007 13:40:07
Writing library : libebml v0.7.7 + libmatroska v0.8.1

Video
ID : 1
Format : MPEG-4 Visual
Format profile : Advanced Simple@L5
Format settings, BVOP : Yes
Format settings, QPel : No
Format settings, GMC : No warppoints
Format settings, Matrix : Default (H.263)
Codec ID : XVID
Codec ID/Hint : XviD
Duration : 21mn 39s
Bit rate : 1 580 Kbps
Width : 640 pixels
Height : 480 pixels
Display aspect ratio : 4:3
Frame rate : 23.976 fps
Resolution : 8 bits
Colorimetry : 4:2:0
Scan type : Progressive
Bits/(Pixel*Frame) : 0.215
Stream size : 245 MiB (79%)
Title : Pokemon TV 001 [By Timber Maniacs]
Writing library : XviD 1.2.1 (UTC 2008-12-04)
Language : English

Audio #1
ID : 2
Format : MPEG Audio
Format version : Version 1
Format profile : Layer 3
Format_Settings_Mode : Joint stereo
Codec ID : A_MPEG/L3
Codec ID/Hint : MP3
Duration : 21mn 41s
Bit rate mode : Constant
Bit rate : 192 Kbps
Channel(s) : 2 channels
Sampling rate : 48.0 KHz
Stream size : 29.8 MiB (10%)
Title : Pokemon TV 001 Rus [By Timber Maniacs]
Language : Russian

Audio #2
ID : 3
Format : MPEG Audio
Format version : Version 1
Format profile : Layer 3
Format_Settings_Mode : Joint stereo
Codec ID : A_MPEG/L3
Codec ID/Hint : MP3
Duration : 21mn 41s
Bit rate mode : Constant
Bit rate : 192 Kbps
Channel(s) : 2 channels
Sampling rate : 48.0 KHz
Stream size : 29.8 MiB (10%)
Title : Pokemon TV 001 Eng [By Timber Maniacs]
Language : English








не знаю просто как эту инфу воткнуть в релиз *спасите

у кого есть продолжение ?? *кразя

Djanik


Пользователь
Пользователь
 

Сообщения: 93

Стаж: 12 лет 7 месяцев 17 дней
Карма: 4

Сообщение Djanik» 30 апр 2012, 21:57

блин, почему-то не вижу личеров в программе, раздача не идёт :-(

BET@Jlb

Аватара пользователя
Новичок
Новичок
 

Сообщения: 48

Стаж: 13 лет 11 месяцев 3 дня

Откуда: Бердск

Карма: 2

Сообщение BET@Jlb» 01 май 2012, 01:30

Чет не качается.. *фу

BET@Jlb

Аватара пользователя
Новичок
Новичок
 

Сообщения: 48

Стаж: 13 лет 11 месяцев 3 дня

Откуда: Бердск

Карма: 2

Сообщение BET@Jlb» 02 май 2012, 05:17

[quote="Djanik"]блин, почему-то не вижу личеров в программе, раздача не идёт :-([/quote]
Продолжение будет? *круто

EugeneNK


Новичок
Новичок
 

Сообщения: 17

Стаж: 12 лет 8 месяцев 29 дней
Карма: -1

Сообщение EugeneNK» 04 май 2012, 15:01

18 серия = ужасная((( Отличается по качеству от других сильно ]:->

Djanik


Пользователь
Пользователь
 

Сообщения: 93

Стаж: 12 лет 7 месяцев 17 дней
Карма: 4

Сообщение Djanik» 05 май 2012, 16:15

BET@Jlb писал(а):

Djanik писал(а):

блин, почему-то не вижу личеров в программе, раздача не идёт :-(

Продолжение будет? *круто


не знаю, ищу потихоньку :-(

Djanik


Пользователь
Пользователь
 

Сообщения: 93

Стаж: 12 лет 7 месяцев 17 дней
Карма: 4

Сообщение Djanik» 05 май 2012, 21:21

EugeneNK писал(а):

18 серия = ужасная((( Отличается по качеству от других сильно ]:->



16 декабря 1997 года случилась трагедия - в очередной серии в качестве спецэффекта было использовано быстрое мигание синего и красного цветов. Оказалось, что этот видеоэффект вызывает у некоторых (сравнительно немногих) людей приступы, сходные с эпилептическими. Однако аудитория сериала была так велика, что около 700 детей из числа зрителей были госпитализированы. В легкой форме симптомы заболевания наблюдались еще у 10 тысяч человек. Вероятно, впрочем, что среди последних было множество симулянтов, захотевших на волне паники прогулять школу.
Возникший скандал имел очень большой резонанс. Новостные программы всего мира запугивали зрителей ужасами, якобы таящимися в японской анимации. Аналогичную позицию заняло и японское правительство, приказавшее закрыть сериал. Однако японские дети были с этим категорически не согласны. Когда руководство ТВ-компании "TV Tokyo" прекратило трансляцию "Покемона", оно было завалено письмами зрителей, требовавших вернуть любимый сериал на экран.
Вопрос о покемонах-вредителях был изучен специальной комиссией. Она пришла к выводу, что сам по себе сериал ни в чем не виноват - опасность представлял только один крошечный фрагмент, попавший в эфир по недосмотру аниматоров. Было издано предписание впредь воздерживаться от видеоэффектов такого рода, и 16 апреля 1998 года "Покемон" вернулся к своим благодарным зрителям.


это были кажется 16,18 и какие-то две серии из 30-40 серий :-(

EugeneNK


Новичок
Новичок
 

Сообщения: 17

Стаж: 12 лет 8 месяцев 29 дней
Карма: -1

Сообщение EugeneNK» 10 май 2012, 21:16

ДА я уже потом вспомнил про это)
но там все равно серии отличаются по качеству... и как минимум по громкости звука

Djanik


Пользователь
Пользователь
 

Сообщения: 93

Стаж: 12 лет 7 месяцев 17 дней
Карма: 4

Сообщение Djanik» 12 май 2012, 01:06

:-[ тады извиняюсь....завтра продолжение постараюсь выложить 0-)

Hamelion13


Новичок
Новичок
 

Сообщения: 1

Стаж: 6 лет 4 месяца 10 дней
Награды: 1
Карма: 0

Сообщение Hamelion13» 27 ноя 2023, 21:47

Встаньте кто-нибудь на раздачу Пожалуйста.


Вернуться в Аниме Сериалы

Кто сейчас на конференции

Сейчас этот форум просматривают: нет зарегистрированных пользователей

Ресурс не предоставляет электронные версии произведений, а занимается лишь коллекционированием и каталогизацией ссылок, присылаемых и публикуемых на форуме нашими читателями. Если вы являетесь правообладателем какого-либо представленного материала и не желаете чтобы ссылка на него находилась в нашем каталоге, свяжитесь с нами и мы незамедлительно удалим её. Файлы для обмена на трекере предоставлены пользователями сайта, и администрация не несёт ответственности за их содержание. Просьба не заливать файлы, защищенные авторскими правами, а также файлы нелегального содержания!