Эффект парадокса / Paradox Effect [2023, Боевик, BDRip-AVC | HDRezka Studio] - Скачать торрент бесплатно

Модераторы: Модераторы Фильмы, мультфильмы, Союз Риперов

Поделиться ВКонтакте Поделиться Facebook Поделиться Twitter Поделиться Mail.RU
АвторСообщение
Konin
Аватара пользователя
Модератор Фильмов
Модератор Фильмов
 
Раздал: 7 ТБ
Скачал: 762.1 ГБ
Ратио: 35.490
Сообщения: 502
Стаж: 11 лет 2 месяца 18 дней
Откуда: Россия, гор. Санкт-Петербург
Награды: 2
Карма: 250
-2--2-

Сообщение Konin » 06 июн 2024, 01:30

Эффект парадокса / Paradox Effect [2023, Боевик, BDRip-AVC | HDRezka Studio] - Скачать торрент

Год выхода: 2023
Страна: США
Студия: Iervolino & Lady Bacardi Entertainment
Жанр: Боевик
Продолжительность: 01:28:06
Перевод: Профессиональный (многоголосый, закадровый) | HDRezka Studio | 18+

Режиссер: Скотт Вейнтроб
В ролях: Ольга Куриленко, Харви Кейтель, Оливер Тревена, Элис Астонс, Мередит Микельсон, Талия Ассераф, Андреа Гарофало, Романо Реджани, Малич Сиссе, Люк Канелла

Описание:
Завязавшая наркоманка становится свидетельницей убийства. Она вынуждена сотрудничать с убийцей, бороться со временем, полицией и преступным миром, чтобы спасти единственного человека, который что-то значит для нее.



Качество: BDRip-AVC
Формат: MKV
Видео: MPEG-4 AVC, (2,40:1), 1024x426, 2010 Кбит/с, 23,976 fps
Аудио #01: 48 kHz, AC3, 2.0, 192 Kbps | Многоголосый Закадровый | HDRezka Studio | RUS | | С цензурой
Аудио #02: 48 kHz, AC3, 2.0, 192 Kbps | Многоголосый Закадровый | HDRezka Studio | RUS | | Без цензуры | 18+
Аудио #03: 48 kHz, AC3, 5.1, 448 Kbps | Оригинал | ENG |
Субтитры: Русские (forced), английские (full)


Общее
Уникальный идентификатор : 100730349021041996878271939963270311675 (0x4BC7F5A4FDD1CA625FAA3E1DFF6DAEFB)
Полное имя : D:TorrentsParadox.Effect.2023.BDRip-AVC_от New-Team_by_JNS82.mkv
Формат : Matroska
Версия формата : Version 4
Размер файла : 1,75 Гбайт
Продолжительность : 1 ч. 28 м.
Общий поток : 2 837 Кбит/сек
Название фильма : Paradox.Effect.2023.BDRip-AVC_от New-Team_by_JNS82
Дата кодирования : UTC 2024-06-05 06:32:58
Программа кодирования : mkvmerge v79.0 ('Funeral Pyres') 64-bit
Библиотека кодирования : libebml v1.4.4 + libmatroska v1.7.1

Видео
Идентификатор : 1
Формат : AVC
Формат/Информация : Advanced Video Codec
Профиль формата : [email protected]
Настройки формата : CABAC / 12 Ref Frames
Параметр CABAC формата : Да
Параметр RefFrames формата : 12 кадров
Идентификатор кодека : V_MPEG4/ISO/AVC
Продолжительность : 1 ч. 28 м.
Битрейт : 2 010 Кбит/сек
Ширина : 1 024 пикселя
Высота : 426 пикселей
Соотношение сторон : 2,40:1
Режим частоты кадров : Постоянный
Частота кадров : 23,976 (24000/1001) кадра/сек
Цветовое пространство : YUV
Субдискретизация насыщенности : 4:2:0
Битовая глубина : 8 бит
Тип развёртки : Прогрессивная
Бит/(Пиксели*Кадры) : 0.192
Размер потока : 1,23 Гбайт (71%)
Библиотека кодирования : x264 core 164 r3156+57M NewTeam t_mod_New [(8 & 10)-bit@all X86_64]
Настройки программы : cabac=1 / ref=12 / deblock=1:-3:-3 / analyse=0x3:0x133 / me=umh / subme=10 / psy=1 / fade_compensate=0.00 / psy_rd=1.03:0.08 / mixed_ref=1 / me_range=32 / chroma_me=1 / trellis=2 / 8x8dct=1 / cqm=0 / deadzone=21,11 / fast_pskip=0 / chroma_qp_offset=-3 / threads=13 / lookahead_threads=3 / sliced_threads=0 / nr=0 / decimate=0 / interlaced=0 / bluray_compat=0 / constrained_intra=0 / fgo=0 / bframes=10 / b_pyramid=2 / b_adapt=2 / b_bias=0 / direct=3 / weightb=1 / open_gop=0 / weightp=2 / keyint=240 / keyint_min=23 / scenecut=40 / intra_refresh=0 / rc_lookahead=60 / rc=2pass / mbtree=0 / bitrate=2010 / ratetol=1.0 / qcomp=0.60 / qpmin=0:0:0 / qpmax=69:69:69 / qpstep=5 / cplxblur=20.0 / qblur=0.5 / vbv_maxrate=50000 / vbv_bufsize=62500 / nal_hrd=none / filler=0 / ip_ratio=1.40 / pb_ratio=1.30 / aq=1:1.00 / aq-sensitivity=10.00 / aq-factor=1.00:1.00:1.00 / aq2=0 / aq3=0
Язык : English
Default : Да
Forced : Нет
Цветовой диапазон : Limited
Коэффициенты матрицы : BT.709

Аудио #1
Идентификатор : 2
Формат : AC-3
Формат/Информация : Audio Coding 3
Коммерческое название : Dolby Digital
Идентификатор кодека : A_AC3
Продолжительность : 1 ч. 28 м.
Вид битрейта : Постоянный
Битрейт : 192 Кбит/сек
Каналы : 2 канала
Channel layout : L R
Частота : 48,0 КГц
Частота кадров : 31,250 кадров/сек (1536 SPF)
Метод сжатия : С потерями
Размер потока : 121 Мбайт (7%)
Заголовок : MVO - HDRezka Studio
Язык : Russian
Service kind : Complete Main
Default : Да
Forced : Нет

Аудио #2
Идентификатор : 3
Формат : AC-3
Формат/Информация : Audio Coding 3
Коммерческое название : Dolby Digital
Идентификатор кодека : A_AC3
Продолжительность : 1 ч. 28 м.
Вид битрейта : Постоянный
Битрейт : 192 Кбит/сек
Каналы : 2 канала
Channel layout : L R
Частота : 48,0 КГц
Частота кадров : 31,250 кадров/сек (1536 SPF)
Метод сжатия : С потерями
Размер потока : 121 Мбайт (7%)
Заголовок : MVO - HDRezka Studio | 18 +
Язык : Russian
Service kind : Complete Main
Default : Нет
Forced : Нет

Аудио #3
Идентификатор : 4
Формат : AC-3
Формат/Информация : Audio Coding 3
Коммерческое название : Dolby Digital
Идентификатор кодека : A_AC3
Продолжительность : 1 ч. 28 м.
Вид битрейта : Постоянный
Битрейт : 448 Кбит/сек
Каналы : 6 каналов
Channel layout : L R C LFE Ls Rs
Частота : 48,0 КГц
Частота кадров : 31,250 кадров/сек (1536 SPF)
Метод сжатия : С потерями
Размер потока : 282 Мбайт (16%)
Заголовок : Original
Язык : English
Service kind : Complete Main
Default : Нет
Forced : Нет

Текст #1
Идентификатор : 5
Формат : UTF-8
Идентификатор кодека : S_TEXT/UTF8
Идентификатор кодека/Информация : UTF-8 Plain Text
Продолжительность : 1 ч. 16 м.
Битрейт : 1 бит/сек
Count of elements : 13
Размер потока : 628 байт (0%)
Заголовок : [forced]
Язык : Russian
Default : Да
Forced : Нет

Текст #2
Идентификатор : 6
Формат : UTF-8
Идентификатор кодека : S_TEXT/UTF8
Идентификатор кодека/Информация : UTF-8 Plain Text
Продолжительность : 1 ч. 20 м.
Битрейт : 40 бит/сек
Count of elements : 683
Размер потока : 24,1 Кбайт (0%)
Заголовок : [full]
Язык : English
Default : Нет
Forced : Нет

Меню
00:00:00.000 : :Chapter 01
00:05:24.949 : :Chapter 02
00:13:04.825 : :Chapter 03
00:21:37.086 : :Chapter 04
00:29:01.029 : :Chapter 05
00:36:52.960 : :Chapter 06
00:44:16.778 : :Chapter 07
00:53:39.048 : :Chapter 08
01:00:07.936 : :Chapter 09
01:08:07.500 : :Chapter 10
01:15:15.010 : :Chapter 11
01:22:15.846 : :Chapter 12
01:28:05.238 : :Chapter 13
Как качать, Как раздавать - Правила и инструкции
Торрент06 июн 2024, 01:30 [ 06 июн 2024, 01:30 ]

СКАЧАТЬ с просмотром рекламы
СтатусПроверен Breecher
.torrent скачан1762 раз
Размер1.75 ГБ (1 874 354 380)

osa193

Аватара пользователя
Гуру
Гуру
 

Сообщения: 3650

Стаж: 7 лет 7 месяцев 5 дней

Откуда: Москва

Награды: 7
Карма: 214
-2--2-

Сообщение osa193» 13 июн 2024, 00:51

гениальный сюжет - наркоманка становится бесстрашным воином-штурмовиком, владеющим всеми видами оружия... *стена

Punto

Аватара пользователя
Опытный пользователь
Опытный пользователь
 

Сообщения: 125

Стаж: 12 лет 7 месяцев 27 дней
Карма: 2

Сообщение Punto» 28 июн 2024, 10:56

Говнище!!!
+ (расписался)


Вернуться в Зарубежные фильмы после 2000го года...

Кто сейчас на конференции

Сейчас этот форум просматривают: нет зарегистрированных пользователей

Ресурс не предоставляет электронные версии произведений, а занимается лишь коллекционированием и каталогизацией ссылок, присылаемых и публикуемых на форуме нашими читателями. Если вы являетесь правообладателем какого-либо представленного материала и не желаете чтобы ссылка на него находилась в нашем каталоге, свяжитесь с нами и мы незамедлительно удалим её. Файлы для обмена на трекере предоставлены пользователями сайта, и администрация не несёт ответственности за их содержание. Просьба не заливать файлы, защищенные авторскими правами, а также файлы нелегального содержания!