Телефонная будка / Phone Booth [2002, Психологический триллер, детектив, BDRip 1080p | Дублированный, профессиональный (многоголосый закадровый), Ю.Сербин] - Скачать торрент бесплатно

Модераторы: Модераторы Фильмы, мультфильмы, Союз Риперов

Поделиться ВКонтакте Поделиться Facebook Поделиться Twitter Поделиться Mail.RU
АвторСообщение
Evgenii82
Аватара пользователя
Супермодератор
Супермодератор
 
Раздал: 10.81 ТБ
Скачал: 132.58 ГБ
Ратио: 453.216
Сообщения: 1988
Стаж: 3 года 11 месяцев
Откуда: Underverse
Награды: 22

Сообщение Evgenii82 » 07 дек 2023, 18:44

Телефонная будка / Phone Booth [2002, Психологический триллер, детектив, BDRip 1080p | Дублированный, профессиональный (многоголосый закадровый), Ю.Сербин] - Скачать торрент

Год выпуска: 2002
Жанр: Психологический триллер, детектив
Страна: США, Fox 2000 Pictures, Zucker-Netter Productions
Режиссёр: Джоэл Шумахер
Перевод: Дублированный, Профессиональный (многоголосый закадровый), Авторский [Ю.Сербин]
Субтитры: Русские, английские
Продолжительность: 01:21:01

В ролях: Колин Фаррелл (I), Кифер Сазерленд, Форест Уитакер, Рада Митчелл, Кэти Холмс, Пола Джей Паркер, Ариан Варинг Эш, Тиа Тексада, Джон Инос III, Ричард Т. Джонс, Кит Ноббс, Делл Йонт, Джеймс МакДональд, Джош Пэйс

Описание: Один телефонный звонок может изменить всю жизнь человека или даже оборвать ее. Герой фильма Стью Шеферд становится пленником телефонной будки. Что вы сделаете, если услышите, как в телефонной будке зазвонил телефон? Скорее всего, инстинктивно поднимете трубку, хотя прекрасно знаете, что кто-то просто ошибся номером. Вот и Стью кажется, что на звонок надо обязательно ответить, а в результате он оказывается втянутым в чудовищную игру. «Только положи трубку, и ты — труп», — говорит ему невидимый собеседник.



Файл
Качество: BDRip 1080p
Формат: MKV
Видео: MPEG-4 AVC, 16.7 Мбит/с, 1920x814
Аудио: AC3, 6 ch, 384 Kbps | Дублированный | RUS
Аудио 2: DTS, 6 ch, 1510 Kbps | Профессиональный (многоголосый закадровый) | RUS
Аудио 3: AC3, 2 ch, 448 Kbps |Авторский (Ю.Сербин) | RUS
Аудио 4: DTS, 6 ch, 1510 Kbps | Оригинал | ENG
Аудио 5: AC3, 2 ch, 224 Kbps | Комментарии режиссера | ENG


General
Unique ID : 229321628918958236581184871869046451213 (0xAC85BD3C6989FAD2A0FA7347D2EDEC0D)
Complete name : G:\Phone Booth [Телефонная будка] (2002) 1920x814 BDRip RusEngSubsChpt.mkv
Format : Matroska
Format version : Version 4
File size : 11.8 GiB
Duration : 1 h 21 min
Overall bit rate : 20.8 Mb/s
Frame rate : 23.976 FPS
Movie name : -=RbM=-
Encoded date : 2013-04-15 13:16:14 UTC
Writing application : mkvmerge v6.1.0 ('Old Devil') built on Mar 2 2013 14:32:37
Writing library : libebml v1.3.0 + libmatroska v1.4.0

Video
ID : 1
Format : AVC
Format/Info : Advanced Video Codec
Format profile : [email protected]
Format settings : CABAC / 5 Ref Frames
Format settings, CABAC : Yes
Format settings, Reference fra : 5 frames
Codec ID : V_MPEG4/ISO/AVC
Duration : 1 h 21 min
Bit rate : 16.7 Mb/s
Width : 1 920 pixels
Height : 814 pixels
Display aspect ratio : 2.35:1
Frame rate mode : Constant
Frame rate : 23.976 (24000/1001) FPS
Color space : YUV
Chroma subsampling : 4:2:0
Bit depth : 8 bits
Scan type : Progressive
Bits/(Pixel*Frame) : 0.446
Stream size : 9.22 GiB (78%)
Title : 70% of the original
Writing library : x264 core 130 r2274+704+40 57838ff tMod+MixAQ [8-bit@all X86]
Encoding settings : cabac=1 / ref=5 / deblock=1:-2:-1 / analyse=0x3:0x133 / me=umh / subme=11 / psy=1 / fade_compensate=0.00 / psy_rd=1.05:0.15 / mixed_ref=1 / me_range=32 / chroma_me=1 / trellis=2 / 8x8dct=1 / cqm=0 / deadzone=21,11 / fast_pskip=0 / chroma_qp_offset=-3 / threads=12 / lookahead_threads=3 / sliced_threads=0 / nr=0 / decimate=0 / interlaced=0 / bluray_compat=0 / constrained_intra=0 / fgo=0 / bframes=12 / b_pyramid=2 / b_adapt=2 / b_bias=0 / direct=3 / weightb=1 / open_gop=0 / weightp=2 / keyint=250 / keyint_min=23 / scenecut=40 / intra_refresh=0 / rc=2pass / mbtree=0 / bitrate=16700 / ratetol=1.0 / qcomp=0.60 / qpmin=0 / qpmax=69 / qpstep=4 / cplxblur=20.0 / qblur=0.5 / ip_ratio=1.30 / pb_ratio=1.15 / aq=3:0.60 / aq-sensitivity=10.00 / aq-ifactor=1.00 / aq-pfactor=1.00 / aq-bfactor=1.00 / aq2=0
Language : English
Default : Yes
Forced : No

Audio #1
ID : 2
Format : AC-3
Format/Info : Audio Coding 3
Commercial name : Dolby Digital
Codec ID : A_AC3
Duration : 1 h 21 min
Bit rate mode : Constant
Bit rate : 384 kb/s
Channel(s) : 6 channels
Channel layout : L R C LFE Ls Rs
Sampling rate : 48.0 kHz
Frame rate : 31.250 FPS (1536 SPF)
Compression mode : Lossy
Stream size : 222 MiB (2%)
Title : Dub AC3 5.1ch 384kbps
Language : Russian
Service kind : Complete Main
Default : Yes
Forced : No

Audio #2
ID : 3
Format : DTS
Format/Info : Digital Theater Systems
Codec ID : A_DTS
Duration : 1 h 21 min
Bit rate mode : Constant
Bit rate : 1 509 kb/s
Channel(s) : 6 channels
Channel layout : C L R Ls Rs LFE
Sampling rate : 48.0 kHz
Frame rate : 93.750 FPS (512 SPF)
Bit depth : 24 bits
Compression mode : Lossy
Stream size : 874 MiB (7%)
Title : MVO DTS 5.1ch 1510kbps
Language : Russian
Default : No
Forced : No

Audio #3
ID : 4
Format : AC-3
Format/Info : Audio Coding 3
Commercial name : Dolby Digital
Codec ID : A_AC3
Duration : 1 h 21 min
Bit rate mode : Constant
Bit rate : 448 kb/s
Channel(s) : 6 channels
Channel layout : L R C LFE Ls Rs
Sampling rate : 48.0 kHz
Frame rate : 31.250 FPS (1536 SPF)
Compression mode : Lossy
Stream size : 260 MiB (2%)
Title : AVO AC3 5.1ch 448kbps (Ю.Сербин)
Language : Russian
Service kind : Complete Main
Default : No
Forced : No

Audio #4
ID : 5
Format : DTS
Format/Info : Digital Theater Systems
Codec ID : A_DTS
Duration : 1 h 21 min
Bit rate mode : Constant
Bit rate : 1 509 kb/s
Channel(s) : 6 channels
Channel layout : C L R Ls Rs LFE
Sampling rate : 48.0 kHz
Frame rate : 93.750 FPS (512 SPF)
Bit depth : 24 bits
Compression mode : Lossy
Stream size : 874 MiB (7%)
Title : Original DTS 5.1ch 1510kbps
Language : English
Default : No
Forced : No

Audio #5
ID : 6
Format : AC-3
Format/Info : Audio Coding 3
Commercial name : Dolby Digital
Codec ID : A_AC3
Duration : 1 h 21 min
Bit rate mode : Constant
Bit rate : 224 kb/s
Channel(s) : 2 channels
Channel layout : L R
Sampling rate : 48.0 kHz
Frame rate : 31.250 FPS (1536 SPF)
Compression mode : Lossy
Stream size : 130 MiB (1%)
Title : commentary by Joel Schumacher
Language : English
Service kind : Complete Main
Default : No
Forced : No

Text #1
ID : 7
Format : UTF-8
Codec ID : S_TEXT/UTF8
Codec ID/Info : UTF-8 Plain Text
Language : Russian
Default : No
Forced : No

Text #2
ID : 8
Format : UTF-8
Codec ID : S_TEXT/UTF8
Codec ID/Info : UTF-8 Plain Text
Language : English
Default : No
Forced : No

Menu
00:00:00.000 : The Last Phone Booth
00:03:42.973 : The Publicist
00:08:58.455 : A Free Pizza
00:10:20.370 : Pam
00:11:45.955 : The Caller
00:14:05.595 : Exposed
00:17:34.387 : Kelly
00:21:19.320 : Don't Hang Up
00:23:22.359 : The Others
00:25:01.417 : Leon's Girls
00:29:00.948 : Guilty
00:32:00.627 : The Cops
00:34:57.762 : Captain Ramey
00:39:19.440 : The Center of Attention
00:43:10.296 : The Cell Phone
00:45:54.502 : She's Not My Wife
00:47:50.534 : The Perfect Violation
00:51:44.059 : Hung Up
00:54:09.621 : The Odds Are Even
00:56:35.767 : Kelly or Pam?
00:58:09.486 : A Sniper Situation
01:00:58.238 : Trust Is the Key
01:03:53.204 : A Chance for Redemption
01:08:50.418 : The Man in 604
01:11:06.095 : A Familiar Face
01:12:30.555 : You'll Be Hearing From Me
01:14:06.067 : A Ringing Phone
01:15:02.456 : End Titles




Как качать, Как раздавать - Правила и инструкции
Торрент07 дек 2023, 18:44 [ 07 дек 2023, 18:44 ]

СКАЧАТЬ с просмотром рекламы
СтатусПроверен
.torrent скачан0 раз
Размер11.76 ГБ (12 623 619 785)

Вернуться в Зарубежные фильмы после 2000го года...

Кто сейчас на конференции

Сейчас этот форум просматривают: нет зарегистрированных пользователей

Ресурс не предоставляет электронные версии произведений, а занимается лишь коллекционированием и каталогизацией ссылок, присылаемых и публикуемых на форуме нашими читателями. Если вы являетесь правообладателем какого-либо представленного материала и не желаете чтобы ссылка на него находилась в нашем каталоге, свяжитесь с нами и мы незамедлительно удалим её. Файлы для обмена на трекере предоставлены пользователями сайта, и администрация не несёт ответственности за их содержание. Просьба не заливать файлы, защищенные авторскими правами, а также файлы нелегального содержания!